<?xml version="1.0" standalone="no"?>
<!DOCTYPE svg PUBLIC "-//W3C//DTD SVG 1.1//EN" "http://www.w3.org/Graphics/SVG/1.1/DTD/svg11.dtd" >
<svg xmlns="http://www.w3.org/2000/svg">
<metadata>Generated by IcoMoon</metadata>
<defs>
<font id="icomoon" horiz-adv-x="1024">
<font-face units-per-em="1024" ascent="960" descent="-64" />
<missing-glyph horiz-adv-x="1024" />
<glyph unicode="&#x20;" horiz-adv-x="512" d="" />
<glyph unicode="&#xe900;" glyph-name="youtube" d="M1002.453 695.253c-12.365 43.307-45.781 76.722-88.183 88.866l-0.905 0.222c-79.787 21.376-400.896 21.376-400.896 21.376s-320.299 0.427-400.896-21.376c-43.307-12.365-76.722-45.781-88.866-88.183l-0.222-0.905c-14.173-72.978-22.281-156.904-22.281-242.723 0-1.743 0.003-3.484 0.010-5.225l-0.001 0.268c-0.004-1.198-0.006-2.617-0.006-4.035 0-85.813 8.107-169.732 23.598-251.033l-1.32 8.327c12.365-43.307 45.781-76.722 88.183-88.866l0.905-0.222c79.701-21.419 400.896-21.419 400.896-21.419s320.256 0 400.896 21.419c43.307 12.365 76.722 45.781 88.866 88.183l0.222 0.905c13.59 71.472 21.364 153.686 21.364 237.715 0 3.173-0.011 6.344-0.033 9.513l0.003-0.486c0.024 2.951 0.037 6.439 0.037 9.929 0 84.041-7.776 166.267-22.648 245.996l1.278-8.245zM409.984 294.357v306.901l267.264-153.685z" />
<glyph unicode="&#xe901;" glyph-name="angle-dubble-left" d="M578.717-27.407c35.806 36.476 35.806 93.798 0 130.275l-230.183 234.501c-48.594 49.505-48.594 127.672 0 177.177l230.183 234.497c35.806 36.478 35.806 93.799 0 130.277s-92.073 36.477-127.879 0l-391.312-398.647c-30.691-31.266-30.691-80.772 0-112.038l391.312-396.042c35.806-36.476 92.073-36.476 127.879 0zM898.428 157.579c35.811 36.484 35.811 93.803 0 130.28l-74.167 75.56c-33.251 33.872-33.251 91.194 0 127.672l74.167 75.56c35.811 36.478 35.811 93.799 0 130.277-35.803 36.477-92.072 36.477-127.876 0l-209.724-213.654c-30.691-31.266-30.691-80.772 0-112.038l209.724-213.657c33.251-36.476 92.072-36.476 127.876 0z" />
<glyph unicode="&#xe902;" glyph-name="arrow-circle-left" d="M512-52.9c271.020 0 491.52 220.5 491.52 491.52s-220.5 491.52-491.52 491.52c-271.020 0-491.52-220.501-491.52-491.52s220.5-491.52 491.52-491.52zM512 868.7c237.15 0 430.080-192.929 430.080-430.080s-192.93-430.080-430.080-430.080c-237.151 0-430.080 192.93-430.080 430.080s192.929 430.080 430.080 430.080zM305.961 416.899c-12.004 12.005-12.004 31.445 0 43.438l153.598 153.602c6.001 5.998 13.865 9.001 21.721 9.001s15.72-3.003 21.721-9.001c12.001-12.004 12.001-31.442 0-43.438l-101.163-101.161h294.482c16.966 0 30.72-13.738 30.72-30.72s-13.754-30.72-30.72-30.72h-294.482l101.163-101.163c12.001-12.001 12.001-31.441 0-43.438-12.005-11.993-31.445-12.001-43.442 0l-153.598 153.6z" />
<glyph unicode="&#xe903;" glyph-name="arrow-left" d="M425.285 3.059c-16.855 0.24-32.931 7.129-44.728 19.169l-361.657 361.019c-25.055 24.851-25.221 65.307-0.37 90.364 0.122 0.124 0.246 0.248 0.37 0.371l361.658 361.016c26.803 22.954 67.14 19.834 90.094-6.971 20.487-23.922 20.487-59.204 0-83.123l-316.289-316.29 319.484-316.29c24.774-24.921 24.774-65.172 0-90.094-12.72-13.012-30.383-19.986-48.563-19.169zM960.093 364.694h-894.559c-35.289 0-63.898 28.609-63.898 63.898s28.609 63.898 63.898 63.898h894.559c35.291 0 63.898-28.609 63.898-63.898s-28.607-63.898-63.898-63.898z" />
<glyph unicode="&#xe904;" glyph-name="arrow-right-circle" d="M512 930.14c-271.020 0-491.52-220.501-491.52-491.52s220.5-491.52 491.52-491.52c271.020 0 491.52 220.5 491.52 491.52s-220.5 491.52-491.52 491.52zM512 8.54c-237.151 0-430.080 192.93-430.080 430.080s192.929 430.080 430.080 430.080c237.15 0 430.080-192.929 430.080-430.080s-192.93-430.080-430.080-430.080zM718.041 460.337c12.001-12.001 12.001-31.441 0-43.438l-153.6-153.6c-6.001-5.997-13.865-8.999-21.721-8.999s-15.72 3.002-21.721 8.999c-12.001 12.005-12.001 31.445 0 43.438l101.163 101.163h-294.482c-16.965 0-30.72 13.738-30.72 30.72s13.755 30.72 30.72 30.72h294.482l-101.163 101.161c-12.001 12.004-12.001 31.442 0 43.438 12.005 11.996 31.445 12.004 43.442 0l153.6-153.602z" />
<glyph unicode="&#xe905;" glyph-name="arrow-up" d="M554.43-26.029l78.101 703.68 105.067-61.44c32-18.646 65.493 21.61 41.451 49.706l-242.112 282.518c-13.099 15.253-36.737 15.253-49.814 0l-242.133-282.518c-24.171-28.096 9.451-68.33 41.322-49.706l105.195 61.312 78.016-703.552c5.461-50.477 79.445-50.496 84.907 0z" />
<glyph unicode="&#xe906;" glyph-name="bolt" horiz-adv-x="645" d="M356.181-31.509h-64.863v328.124h-266.133l276.234 631.876h64.898v-330h266.207l-276.344-630zM139.824 371.617h226.494v-193.308l151.413 345.183h-226.413v194.654l-151.494-346.528z" />
<glyph unicode="&#xe907;" glyph-name="card" d="M857.285 486.562h-231.428v-231.429h231.428v231.429zM780.142 332.277h-77.14v77.144h77.14v-77.144zM888.144 795.134h-756.002c-63.805 0-115.714-51.91-115.714-115.714v-462.858c0-63.803 51.91-115.712 115.714-115.712h756.002c63.803 0 115.712 51.909 115.712 115.712v462.858c0 63.805-51.909 115.714-115.712 115.714zM926.713 216.561c0-21.266-17.302-38.572-38.568-38.572h-756.002c-21.268 0-38.572 17.306-38.572 38.572v347.144h833.141v-347.144zM926.713 640.848h-833.141v38.572c0 21.268 17.303 38.572 38.572 38.572h756.002c21.266 0 38.568-17.303 38.568-38.572v-38.572zM240.143 332.277h-77.143v-77.144h77.143v77.144zM394.43 332.277h-77.145v-77.144h77.145v77.144z" />
<glyph unicode="&#xe908;" glyph-name="cart-add" d="M732.984 490.678c-145.637 0-264.127-124.413-264.127-277.33s118.49-277.333 264.127-277.333c145.637 0 264.129 124.416 264.129 277.333s-118.491 277.33-264.129 277.33zM834.57 170.681h-60.952v-64c0-23.552-18.203-42.667-40.633-42.667s-40.633 19.115-40.633 42.667v64h-60.952c-22.43 0-40.638 19.115-40.638 42.667s18.208 42.667 40.638 42.667h60.952v64c0 23.552 18.203 42.667 40.633 42.667s40.633-19.115 40.633-42.667v-64h60.952c22.43 0 40.638-19.115 40.638-42.667s-18.208-42.667-40.638-42.667zM714.323 874.24l-3.248 17.067c-7.314 39.68-41.043 68.693-79.648 68.693h-406.348c-38.603 0-72.33-29.013-79.645-67.84l-122.311-600.749c-0.813-4.691-1.219-9.387-1.219-14.078 0-46.933 36.571-85.333 81.27-85.333h284.85c-0.406 7.256-0.406 14.078-0.406 21.333 0 21.758 1.625 43.091 5.282 63.576h-289.727l121.905 597.758 406.348-0.427 61.362-300.8c13.41 1.707 26.819 2.56 40.229 2.56 14.629 0 28.848-0.853 43.071-2.987l-61.767 301.227zM955.319 490.667c-28.038 25.173-60.138 45.227-95.086 59.733l-66.233 323.84h-79.643l-123.533 0.427c-22.348 0-40.633 19.2-40.633 42.667s18.286 42.667 40.633 42.667h203.176c38.605 0 72.329-29.013 79.643-68.693l81.676-400.64zM428.254 490.655c-89.64 0-162.54 76.544-162.54 170.667v85.333c0 23.552 18.204 42.667 40.635 42.667s40.635-19.115 40.635-42.667v-85.333c0-47.062 36.45-85.333 81.27-85.333s81.269 38.272 81.269 85.333v85.333c0 23.552 18.203 42.667 40.633 42.667s40.638-19.115 40.638-42.667v-85.333c0-94.123-72.899-170.667-162.54-170.667z" />
<glyph unicode="&#xe909;" glyph-name="chat" d="M224.627 118.117v193.172h-78.551c-61.887 0-112.224 50.343-112.224 112.219v392.765c0 61.881 50.338 112.219 112.224 112.219h583.535c61.872 0 112.211-50.338 112.211-112.219v-392.765c0-61.876-50.339-112.219-112.211-112.219h-311.819l-193.165-193.172zM146.076 853.678c-20.637 0-37.412-16.775-37.412-37.406v-392.765c0-20.624 16.775-37.406 37.412-37.406h153.357v-87.378l87.373 87.378h342.805c20.624 0 37.399 16.782 37.399 37.406v392.765c0 20.631-16.775 37.406-37.399 37.406h-583.535zM916.643 753.729v-479.847c0-20.624-16.782-37.406-37.406-37.406h-153.369v-87.37l-87.37 87.37h-189.717l-74.805-74.809h233.532l193.164-193.176v193.176h78.564c61.872 0 112.211 50.339 112.211 112.215v374.062c0 48.762-31.27 90.346-74.805 105.785zM477.112 655.42h-74.805v-74.805h74.805v74.805zM626.737 655.42h-74.805v-74.805h74.805v74.805zM327.488 655.42h-74.812v-74.805h74.812v74.805z" />
<glyph unicode="&#xe90a;" glyph-name="check-circle" d="M767.717 616.317c-15.758 16.62-42.038 17.352-58.681 1.55l-265.025-251.337-126.408 129.785c-16.010 16.426-42.26 16.786-58.7 0.774-16.426-15.996-16.772-42.274-0.776-58.7l154.984-159.12c8.122-8.349 18.916-12.553 29.738-12.553 10.268 0 20.536 3.795 28.576 11.39l294.744 279.522c16.631 15.776 17.336 42.054 1.548 58.688zM512 960c-282.32 0-512-229.68-512-512 0-282.323 229.68-512 512-512 282.323 0 512 229.677 512 512 0 282.32-229.677 512-512 512zM512 19.028c-236.53 0-428.974 192.428-428.974 428.972 0 236.53 192.442 428.974 428.974 428.974 236.544 0 428.972-192.442 428.972-428.974 0-236.544-192.428-428.972-428.972-428.972z" />
<glyph unicode="&#xe90b;" glyph-name="clock" d="M511.961 875.941c-87.365 0-172.768-25.907-245.409-74.444s-129.258-117.525-162.691-198.24c-33.433-80.715-42.181-169.531-25.137-255.217 17.044-85.685 59.114-164.394 120.891-226.171s140.484-103.846 226.171-120.892c85.687-17.041 174.503-8.294 255.218 25.136 80.715 33.437 149.703 90.052 198.24 162.696 48.538 72.638 74.445 158.045 74.445 245.408-0.139 117.111-46.725 229.385-129.53 312.195-82.811 82.81-195.086 129.393-312.197 129.531zM511.961 72.806c-71.481 0-141.355 21.197-200.79 60.904-59.434 39.713-105.757 96.16-133.111 162.202-27.355 66.037-34.512 138.704-20.567 208.812s48.367 134.504 98.911 185.049c50.545 50.544 114.942 84.965 185.049 98.911s142.775 6.788 208.817-20.566c66.036-27.355 122.482-73.678 162.196-133.112s60.91-129.309 60.91-200.79c-0.12-95.814-38.237-187.673-105.984-255.425-67.753-67.753-159.614-105.87-255.431-105.984zM552.196 450.821v224.316c0 10.651-4.231 20.864-11.762 28.396s-17.745 11.762-28.396 11.762c-10.65 0-20.864-4.231-28.395-11.762s-11.762-17.745-11.762-28.396v-240.941c0.002-10.649 4.235-20.862 11.766-28.391l120.471-120.471c7.573-7.313 17.717-11.36 28.246-11.27 10.526 0.090 20.603 4.313 28.049 11.758s11.668 17.516 11.758 28.046c0.090 10.529-3.957 20.673-11.27 28.25l-108.705 108.703z" />
<glyph unicode="&#xe90c;" glyph-name="email-open" d="M711.999 727.991h-399.999v-80h399.999v80zM903.999 567.99h-31.998v392.001h-720.001v-392.001h-32c-66.168 0-120-53.832-120-119.998v-392.002c0-66.166 53.832-119.998 120-119.998h783.999c66.169 0 120.001 53.832 120.001 119.998v392.002c0 66.166-53.832 119.998-120.001 119.998zM232 879.991h559.999v-412l-280-210-280 210v412zM943.999 55.99c0-22.054-17.943-40-40-40h-783.999c-22.056 0-40 17.947-40 40v392.002c0 22.054 17.944 39.997 40 39.997h32v-59.999l188.116-141.084-192.414-147.137 48.596-63.549 210.306 160.821 105.396-79.049 105.396 79.045 210.307-160.821 48.594 63.549-192.413 147.137 188.116 141.088v59.999h31.998c22.058 0 40-17.943 40-39.997v-392.002zM632.001 567.99h-240.003v-80.001h240.003v80.001z" />
<glyph unicode="&#xe90d;" glyph-name="email-open-2" d="M104.386 42.59v490.114l381.162-261.254c7.279-5.026 15.909-7.533 24.375-7.533 8.458 0 16.925 2.507 24.371 7.533l380.994 261.254v-490.114h-810.902zM509.923 845.611l370.16-232.753-370.16-253.688-370.162 253.688 370.162 232.753zM981.295 650.849l-448.528 282.070c-13.877 8.801-31.818 8.801-45.699 0l-448.524-282.070c-12.526-7.854-20.144-21.631-20.144-36.437v-614.879c0-23.794 19.125-43.053 42.993-43.053h897.055c23.695 0 42.992 19.259 42.992 43.053v614.879c0 14.81-7.619 28.587-20.144 36.437z" />
<glyph unicode="&#xe90e;" glyph-name="facebook" d="M720.056 789.501c-26.853 5.37-63.12 9.383-85.929 9.383-61.761 0-65.773-26.852-65.773-69.817v-76.483h154.387l-13.458-158.431h-140.929v-481.897h-193.307v481.897h-99.355v158.431h99.355v97.997c0 134.232 63.088 209.419 221.486 209.419 55.032 0 95.311-8.056 147.658-18.797l-24.136-151.702z" />
<glyph unicode="&#xe90f;" glyph-name="headset" d="M903.999 527.99h-31.998v40c0 198.505-161.496 360.001-360 360.001s-360-161.496-360-360.001v-40h-32c-66.168 0-120-53.832-120-119.998v-80.001c0-66.169 53.832-120.001 120-120.001h112v360c0 154.393 125.608 280.001 280 280.001s280-125.608 280-280.001v-320c0-66.166-53.832-119.998-119.998-119.998h-46.88c-16.513 46.554-60.977 79.997-113.122 79.997-66.169 0-120.001-53.832-120.001-119.998 0-66.169 53.832-120.001 120.001-120.001 52.144 0 96.605 33.443 113.122 80.001h46.88c96.586 0 177.395 68.82 195.975 159.998h36.022c66.169 0 120.001 53.832 120.001 120.001v80.001c0 66.166-53.832 119.998-120.001 119.998zM152 287.991h-32c-22.056 0-40 17.943-40 40v80.001c0 22.054 17.944 40 40 40h32v-160.002zM512 47.991c-22.058 0-40 17.943-40 40 0 22.054 17.943 40 40 40s40-17.947 40-40c0-22.058-17.943-40-40-40zM943.999 327.991c0-22.058-17.943-40-40-40h-31.998v160.002h31.998c22.058 0 40-17.947 40-40v-80.001z" />
<glyph unicode="&#xe910;" glyph-name="home" d="M965.109 566.615l-426.667 341.333c-7.533 5.952-16.853 9.19-26.454 9.19s-18.92-3.238-26.453-9.19l-426.667-341.333c-6.895-5.512-11.912-13.027-14.357-21.509s-2.199-17.514 0.704-25.851c2.911-8.326 8.33-15.545 15.512-20.665s15.774-7.887 24.595-7.922h42.666v-383.999c0-33.948 13.486-66.506 37.49-90.511s56.562-37.489 90.51-37.489h512.001c33.948 0 66.506 13.484 90.511 37.489s37.489 56.563 37.489 90.511v383.999h42.668c8.817 0.035 17.408 2.803 24.592 7.922s12.601 12.339 15.511 20.665c2.905 8.336 3.153 17.368 0.706 25.851s-7.464 15.998-14.358 21.509zM426.656 64v170.668c0 22.63 8.99 44.334 24.994 60.341 16.003 16.001 37.708 24.991 60.339 24.991s44.334-8.99 60.341-24.991c16.001-16.007 24.991-37.71 24.991-60.341v-170.668h-170.665zM810.658 533.335v-426.666c0-11.318-4.495-22.167-12.498-30.17s-18.852-12.498-30.17-12.498h-85.332v170.668c0 45.261-17.985 88.673-49.987 120.681-32.008 32.003-75.42 49.987-120.682 49.987s-88.673-17.985-120.679-49.987c-32.006-32.008-49.987-75.42-49.987-120.681v-170.668h-85.334c-11.316 0-22.168 4.495-30.17 12.498s-12.497 18.852-12.497 30.17v426.666c0 6.624-1.542 13.156-4.505 19.081s-7.263 11.078-12.562 15.052l315.733 252.587 315.732-252.587c-5.298-3.974-9.599-9.128-12.563-15.052-2.959-5.925-4.5-12.457-4.5-19.081z" />
<glyph unicode="&#xe911;" glyph-name="instagram" d="M490.708 813.362c128.019 0 143.184-0.489 193.74-2.796 46.746-2.131 72.134-9.942 89.030-16.508 22.381-8.698 38.349-19.087 55.13-35.864 16.774-16.779 27.168-32.751 35.866-55.13 6.566-16.895 14.374-42.282 16.506-89.028 2.304-50.557 2.797-65.722 2.797-193.74 0-128.020-0.493-143.188-2.797-193.742-2.131-46.746-9.939-72.134-16.506-89.030-8.698-22.374-19.091-38.349-35.866-55.123-16.781-16.781-32.749-27.168-55.13-35.866-16.896-6.566-42.285-14.381-89.030-16.512-50.548-2.304-65.711-2.797-193.74-2.797-128.031 0-143.192 0.493-193.743 2.797-46.746 2.131-72.133 9.946-89.028 16.512-22.38 8.698-38.352 19.085-55.128 35.866-16.777 16.774-27.169 32.749-35.866 55.123-6.566 16.896-14.377 42.285-16.508 89.030-2.307 50.554-2.796 65.722-2.796 193.742s0.489 143.183 2.796 193.74c2.131 46.746 9.942 72.133 16.508 89.028 8.698 22.38 19.087 38.351 35.866 55.128 16.776 16.778 32.748 27.168 55.128 35.866 16.895 6.566 42.282 14.377 89.028 16.508 50.557 2.307 65.722 2.796 193.743 2.796zM490.708 899.75c-130.214 0-146.541-0.552-197.681-2.885-51.032-2.328-85.886-10.433-116.383-22.284-31.528-12.253-58.267-28.647-84.923-55.302-26.655-26.656-43.049-53.394-55.3-84.923-11.853-30.497-19.959-65.35-22.287-116.382-2.333-51.139-2.885-67.467-2.885-197.678 0-130.216 0.552-146.542 2.885-197.678 2.328-51.034 10.433-85.888 22.287-116.384 12.251-31.526 28.645-58.266 55.3-84.922 26.656-26.656 53.395-43.053 84.923-55.302 30.497-11.853 65.35-19.955 116.383-22.285 51.139-2.336 67.467-2.886 197.681-2.886 130.212 0 146.54 0.55 197.676 2.886 51.034 2.33 85.888 10.432 116.384 22.285 31.533 12.25 58.266 28.646 84.922 55.302s43.053 53.395 55.302 84.922c11.853 30.496 19.962 65.35 22.285 116.384 2.336 51.136 2.886 67.462 2.886 197.678 0 130.211-0.55 146.539-2.886 197.678-2.323 51.032-10.432 85.885-22.285 116.382-12.25 31.529-28.646 58.267-55.302 84.923s-53.389 43.048-84.922 55.302c-30.496 11.851-65.35 19.956-116.384 22.284-51.137 2.333-67.464 2.885-197.676 2.885zM490.959 666.281c-135.979 0-246.209-110.229-246.209-246.205 0-135.98 110.23-246.207 246.209-246.207 135.976 0 246.206 110.227 246.206 246.207 0 135.976-110.23 246.205-246.206 246.205zM490.959 260.256c-88.268 0-159.82 71.553-159.82 159.82 0 88.265 71.553 159.818 159.82 159.818 88.265 0 159.819-71.553 159.819-159.818 0-88.267-71.554-159.82-159.819-159.82zM804.32 676.152c0-31.774-25.76-57.534-57.536-57.534s-57.536 25.76-57.536 57.534c0 31.776 25.76 57.536 57.536 57.536s57.536-25.76 57.536-57.536z" />
<glyph unicode="&#xe912;" glyph-name="landing-page" d="M853.299 874.671h-682.667c-33.948 0-66.505-13.486-90.51-37.49s-37.49-56.562-37.49-90.51v-597.334c0-33.948 13.486-66.506 37.49-90.511s56.562-37.489 90.51-37.489h682.667c33.948 0 66.506 13.484 90.511 37.489s37.489 56.563 37.489 90.511v597.334c0 33.948-13.484 66.505-37.489 90.51s-56.563 37.49-90.511 37.49zM170.632 789.337h682.667c11.313 0 22.167-4.495 30.17-12.497 7.998-8.002 12.498-18.854 12.498-30.17v-128h-768.003v128c0 11.316 4.495 22.168 12.497 30.17s18.854 12.497 30.17 12.497zM853.299 106.668h-682.667c-11.316 0-22.169 4.5-30.17 12.498-8.001 8.003-12.497 18.858-12.497 30.17v384.001h768.003v-384.001c0-11.313-4.5-22.167-12.498-30.17-8.003-7.998-18.858-12.498-30.17-12.498zM298.632 661.337h-85.334v85.334h85.334v-85.334zM469.298 661.337h-85.333v85.334h85.333v-85.334zM426.632 448.004h-170.667c-11.316 0-22.169-4.495-30.17-12.497s-12.497-18.854-12.497-30.17v-170.669c0-11.313 4.495-22.167 12.497-30.165 8.001-8.003 18.854-12.498 30.17-12.498h170.667c11.316 0 22.168 4.495 30.17 12.498 8.002 7.998 12.497 18.852 12.497 30.165v170.669c0 11.316-4.495 22.169-12.497 30.17s-18.854 12.497-30.17 12.497zM383.965 277.337h-85.333v85.332h85.333v-85.332zM554.631 448.004h256v-85.336h-256v85.336zM554.631 277.337h256v-85.332h-256v85.332z" />
<glyph unicode="&#xe913;" glyph-name="location" d="M515.263 667.158c-86.941 0-158.316-71.343-158.316-158.316 0-86.941 71.375-158.316 158.316-158.316 86.974 0 158.316 71.376 158.316 158.316 0 86.972-71.342 158.316-158.316 158.316zM515.263 586.316c43.303 0 77.474-34.17 77.474-77.474 0-43.239-34.171-77.474-77.474-77.474-43.238 0-77.474 34.235-77.474 77.474 0 43.302 34.236 77.474 77.474 77.474zM514.737 912.842c-217.481 0-394.105-179.296-394.105-398.737 0-137.95 58.145-267.876 134.211-364.947s168.124-166 259.895-166c91.787 0 183.823 68.928 259.895 166s134.211 226.998 134.211 364.947c0 219.447-176.622 398.737-394.105 398.737zM514.737 832c173.216 0 313.263-141.577 313.263-317.895 0-114.816-50.343-230.168-116.947-315.158s-151.39-134.947-196.316-134.947c-44.894 0-129.717 49.957-196.316 134.947s-116.947 200.342-116.947 315.158c0 176.324 140.050 317.895 313.263 317.895z" />
<glyph unicode="&#xe914;" glyph-name="message" d="M247.444 624.778c-1.083 0.098-2.342 0.153-3.614 0.153-10.506 0-20.125-3.797-27.559-10.094l0.062 0.051c-9.333-7.879-15.22-19.585-15.22-32.667 0-10.482 3.78-20.080 10.050-27.508l-0.052 0.064c0 0 40.245-47.881 95.444-96s123.357-101.778 202.333-101.778c78.99 0 146.871 53.735 201.667 101.889s94.667 96.111 94.667 96.111c6.163 7.346 9.906 16.904 9.906 27.335 0 13.141-5.941 24.895-15.284 32.722l-0.067 0.054c-7.346 6.163-16.904 9.906-27.335 9.906-13.141 0-24.895-5.941-32.722-15.284l-0.054-0.067c0 0-36.322-43.499-85.444-86.667s-113.019-80.667-145.333-80.667c-32.282 0-96.662 37.575-146.222 80.778s-86.222 86.667-86.222 86.667c-7.115 8.395-17.321 13.98-28.839 14.989l-0.161 0.011zM508.333 917.333c-173.849 0-299.358-27.014-382.222-106.333s-111.889-201.515-111.889-368.556c0-167.017 29.027-289.119 111.889-368.444s208.371-106.444 382.222-106.444c173.851 0 299.471 27.119 382.333 106.444s111.889 201.428 111.889 368.444c0 167.040-29.025 289.236-111.889 368.556s-208.484 106.333-382.333 106.333zM508.333 832c164.775 0 265.105-26.929 323.333-82.667s85.556-149.753 85.556-306.889c0-157.111-27.325-251.032-85.556-306.778s-158.56-82.778-323.333-82.778c-164.773 0-264.991 27.032-323.222 82.778s-85.556 149.666-85.556 306.778c0 157.136 27.327 251.151 85.556 306.889s158.447 82.667 323.222 82.667z" />
<glyph unicode="&#xe915;" glyph-name="messages" d="M213.298-21.332c-5.547-0.070-11.054 0.949-16.213 2.986-7.859 3.228-14.575 8.731-19.288 15.802-4.713 7.066-7.208 15.382-7.165 23.881v128c-33.948 0-66.505 13.484-90.51 37.489s-37.49 56.563-37.49 90.511v341.332c0 33.948 13.486 66.505 37.49 90.51s56.562 37.49 90.51 37.49h511.999c33.948 0 66.506-13.486 90.511-37.49s37.489-56.562 37.489-90.51v-341.332c0-33.948-13.484-66.506-37.489-90.511s-56.563-37.489-90.511-37.489h-281.173l-157.866-158.294c-3.987-3.956-8.715-7.082-13.913-9.205s-10.765-3.201-16.38-3.169zM170.632 661.335c-11.316 0-22.169-4.495-30.17-12.497s-12.497-18.854-12.497-30.17v-341.332c0-11.318 4.495-22.172 12.497-30.17 8.002-8.003 18.854-12.498 30.17-12.498h42.666c11.316 0 22.169-4.495 30.17-12.498 8.001-7.998 12.497-18.852 12.497-30.17v-68.263l98.56 98.557c7.842 7.782 18.395 12.218 29.44 12.374h298.666c11.318 0 22.167 4.495 30.17 12.498 8.003 7.998 12.498 18.852 12.498 30.17v341.332c0 11.316-4.495 22.168-12.498 30.17s-18.852 12.497-30.17 12.497h-511.999zM981.299 448.002v341.333c0 33.948-13.484 66.505-37.489 90.51s-56.563 37.49-90.511 37.49h-512.001c-33.948 0-66.505-13.486-90.51-37.49s-37.49-56.562-37.49-90.51h85.334c0 11.316 4.495 22.169 12.497 30.17s18.854 12.497 30.17 12.497h512.001c11.313 0 22.167-4.495 30.17-12.497 7.998-8.002 12.498-18.854 12.498-30.17v-341.333c0-11.316-4.5-22.169-12.498-30.172-8.003-7.998-18.858-12.493-30.17-12.493v-85.337c33.948 0 66.506 13.49 90.511 37.495s37.489 56.563 37.489 90.508zM597.299 576.002h-341.334v-85.333h341.334v85.333zM597.299 405.337h-341.334v-85.337h341.334v85.337z" />
<glyph unicode="&#xe916;" glyph-name="phone" d="M469.333 106.667h85.333c23.552 0 42.667 19.115 42.667 42.667s-19.115 42.667-42.667 42.667h-85.333c-23.552 0-42.667-19.115-42.667-42.667s19.115-42.667 42.667-42.667zM810.667 789.333c0 33.963-13.483 66.518-37.503 90.496-23.981 24.021-56.535 37.504-90.497 37.504-94.72 0-246.613 0-341.333 0-33.963 0-66.517-13.483-90.496-37.504-24.022-23.979-37.504-56.534-37.504-90.496v-682.667c0-33.963 13.483-66.516 37.504-90.497 23.979-24.020 56.533-37.503 90.496-37.503h341.333c33.963 0 66.516 13.483 90.497 37.503 24.020 23.981 37.503 56.535 37.503 90.497v682.667zM725.333 789.333v-682.667c0-11.308-4.481-22.187-12.503-30.164-7.977-8.021-18.856-12.503-30.164-12.503-94.72 0-246.613 0-341.333 0-11.307 0-22.187 4.481-30.165 12.503-8.021 7.977-12.502 18.856-12.502 30.164 0 163.499 0 519.168 0 682.667 0 11.306 4.48 22.187 12.502 30.165 7.978 8.022 18.858 12.502 30.165 12.502h341.333c11.308 0 22.187-4.48 30.164-12.502 8.021-7.978 12.503-18.859 12.503-30.165z" />
<glyph unicode="&#xe917;" glyph-name="phone-call" d="M647.111 945.556c-1.409 0.165-3.042 0.259-4.696 0.259-21.933 0-40.001-16.55-42.397-37.843l-0.018-0.194c-0.165-1.409-0.259-3.042-0.259-4.696 0-21.933 16.55-40.001 37.843-42.397l0.194-0.018c155.868-17.31 278.589-139.79 296.111-295.667 2.466-21.436 20.508-37.927 42.403-37.927 1.659 0 3.296 0.095 4.905 0.279l-0.197-0.018c21.442 2.46 37.94 20.505 37.94 42.404 0 1.698-0.099 3.372-0.292 5.018l0.019-0.2c-21.924 195.033-176.521 349.341-371.556 371zM650.556 777c-2.439 0.495-5.242 0.778-8.111 0.778-20.695 0-37.949-14.734-41.843-34.284l-0.045-0.272c-0.495-2.439-0.778-5.242-0.778-8.111 0-20.695 14.734-37.949 34.284-41.843l0.272-0.045c66.998-13.014 119.052-65.186 132.111-132.222 3.975-19.78 21.208-34.47 41.872-34.47 2.915 0 5.762 0.292 8.513 0.849l-0.274-0.046c19.77 3.983 34.449 21.211 34.449 41.868 0 2.877-0.285 5.687-0.828 8.404l0.045-0.272c-19.652 100.881-98.751 180.065-199.667 199.667zM223.778 933.556c-37.164-2.722-68.686-18.356-94.111-36.222s-45.352-38.387-59.667-55.222c-7.157-8.418-12.877-15.925-17.111-21.778-3.2-4.423-4.66-6.857-6.667-10.111-24.018-33.822-46.486-99.986-18.556-194.444 28.010-94.727 102.808-218.567 269.333-385.111 166.551-166.545 290.366-241.325 385.111-269.333 94.452-27.922 160.709-5.499 194.556 18.556 3.224 1.989 5.637 3.511 10 6.667 5.852 4.231 13.362 9.956 21.778 17.111 16.831 14.309 37.359 34.241 55.222 59.667s33.502 56.944 36.222 94.111c2.72 37.167-9.542 78.625-39.333 115-0.017 0-0.037 0-0.057 0s-0.040 0-0.060 0h0.003c-62.291 75.621-109.549 113.749-157.553 128s-89.712-2.897-116.778-16c-27.066-13.103-41.915-20.86-63-18.222s-57.127 18.363-114.667 75.889c-57.528 57.538-73.25 93.466-75.889 114.556s5.233 36.039 18.333 63.111c13.1 27.072 30.26 68.773 16 116.778s-52.475 95.264-128.111 157.556c0 0.016 0 0.036 0 0.055s0 0.039 0 0.059v-0.003c-36.364 29.794-77.836 42.055-115 39.334zM230 848.444c16.349 1.197 32.527-2.082 54.667-20.222 69.415-57.205 94.235-95.473 100.333-116 6.104-20.548 1.031-30.471-11-55.333s-32.199-62.131-26.111-110.778c6.088-48.646 35.811-99.911 100.222-164.333 64.423-64.408 115.689-94.136 164.333-100.222s86.031 14.077 110.889 26.111c24.858 12.034 34.791 17.099 55.333 11s58.697-30.882 116-100.444c18.026-22.069 21.305-38.238 20.111-54.556-1.198-16.357-8.916-34.292-20.889-51.333s-27.787-32.622-40.778-43.667c-6.496-5.523-12.251-9.968-16.444-13s-9.483-6.121-5.333-3.778c-1.527-0.852-2.797-1.661-4.019-2.533l0.13 0.088c-14.515-10.381-47.116-28.208-121.111-6.333s-188.486 87.38-349 247.889c-160.49 160.508-226.013 275.018-247.889 349s-4.044 106.584 6.333 121.111c0.784 1.041 1.591 2.237 2.337 3.475l0.107 0.192c-2.234-3.934 0.738 1.354 3.778 5.556s7.473 9.944 13 16.444c11.054 13 26.623 28.802 43.667 40.778s34.984 19.692 51.333 20.889z" />
<glyph unicode="&#xe918;" glyph-name="pinterest" d="M503.828 960c-262.013 0-394.114-187.846-394.114-344.49 0-94.838 35.913-179.236 112.93-210.649 12.631-5.16 23.942-0.18 27.603 13.801 2.55 9.691 8.58 34.113 11.251 44.284 3.69 13.831 2.25 18.661-7.951 30.722-22.202 26.192-36.393 60.095-36.393 108.129 0 139.392 104.289 264.142 271.523 264.142 148.093 0 229.46-90.517 229.46-211.338 0-159.014-70.386-293.216-174.825-293.216-57.694 0-100.868 47.734-87.037 106.239 16.561 69.846 48.694 145.273 48.694 195.678 0 45.124-24.242 82.777-74.377 82.777-58.985 0-106.359-60.995-106.359-142.722 0-52.054 17.581-87.278 17.581-87.278s-60.365-255.713-70.926-300.507c-21.061-89.198-3.15-198.524-1.65-209.569 0.9-6.539 9.301-8.097 13.111-3.116 5.431 7.080 75.667 93.813 99.549 180.465 6.75 24.51 38.794 151.57 38.794 151.57 19.141-36.543 75.156-68.735 134.712-68.735 177.285 0 297.538 161.624 297.538 377.973 0 163.514-138.525 315.837-349.112 315.837z" />
<glyph unicode="&#xe919;" glyph-name="ques" d="M512 907.789c-253.521 0-459.789-206.269-459.789-459.789s206.269-459.787 459.789-459.787c253.521 0 459.787 206.266 459.787 459.787s-206.266 459.789-459.787 459.789zM512 200.418c-19.559 0-35.368 15.845-35.368 35.371s15.809 35.371 35.368 35.371c19.559 0 35.366-15.845 35.366-35.371s-15.807-35.371-35.366-35.371zM547.366 417.086v-39.823c0-19.526-15.807-35.371-35.366-35.371s-35.368 15.845-35.368 35.371v70.737c0 19.523 15.809 35.368 35.368 35.368 39.009 0 70.737 31.726 70.737 70.737s-31.728 70.737-70.737 70.737c-39.011 0-70.737-31.726-70.737-70.737 0-19.523-15.809-35.368-35.368-35.368s-35.368 15.845-35.368 35.368c0 78.023 63.451 141.474 141.474 141.474s141.474-63.451 141.474-141.474c0-65.785-45.131-121.243-106.108-137.019z" />
<glyph unicode="&#xe91a;" glyph-name="refresh" d="M991.482 448.489c0-128.209-49.929-248.752-140.591-339.41-90.654-90.662-211.202-140.588-339.41-140.588v74.999c223.315 0 405 181.688 405 405 0 132.921-64.11 255.529-172.335 331.501l-103.287-103.283v251.783h251.783l-94.803-94.805c54.204-40.395 99.73-92.057 132.767-151.078 39.83-71.156 60.879-152.115 60.879-234.119zM106.482 448.398c0 223.311 181.688 404.999 404.999 404.999v75c-128.209 0-248.753-49.934-339.409-140.59-90.662-90.656-140.59-211.2-140.59-339.409 0-82.003 21.047-162.968 60.879-234.117 33.018-59.001 78.528-110.649 132.715-151.040l-94.752-94.75h251.784v251.783l-103.337-103.341c-108.194 75.977-172.289 198.561-172.289 331.465z" />
<glyph unicode="&#xe91b;" glyph-name="send" d="M956.012 891.993c-6.332 6.249-14.376 10.482-23.114 12.166-8.732 1.683-17.772 0.741-25.975-2.708l-865.612-355.793c-7.992-3.524-14.787-9.296-19.557-16.612s-7.31-15.862-7.31-24.597c0-8.734 2.54-17.28 7.31-24.596s11.565-13.088 19.557-16.612l335.075-152.223 152.226-335.076c3.618-7.822 9.401-14.433 16.666-19.063s15.704-7.083 24.317-7.060c8.738 0.222 17.22 2.975 24.422 7.936 7.196 4.955 12.794 11.901 16.111 19.985l355.345 865.163c3.447 8.202 4.392 17.241 2.708 25.978s-5.916 16.779-12.169 23.113zM565.993 107.895l-103.135 227.442 200.865 200.863-63.499 63.502-200.868-200.865-227.437 103.134 669.252 275.177-275.178-669.253z" />
<glyph unicode="&#xe91c;" glyph-name="star" d="M964.146 566.992c-7.69 23.59-28.091 40.739-52.67 44.32l-248.99 36.179-111.26 224.81c-22.031 44.45-94.841 44.45-116.87 0l-111.26-224.81-248.4-36.179c-24.51-3.581-44.91-20.791-52.6-44.39-7.69-23.53-1.3-49.41 16.49-66.74l180.16-175.6-42.501-247.75c-4.17-24.439 5.871-49.279 25.94-63.81 20.081-14.529 46.8-16.43 68.7-4.89l221.88 117 222.53-117c9.52-5.020 19.95-7.499 30.309-7.499 13.491 0 26.98 4.239 38.391 12.38 20.080 14.669 30.109 39.369 25.939 63.81l-42.429 247.749 180.159 175.6c17.79 17.281 24.17 43.22 16.481 66.821z" />
<glyph unicode="&#xe91d;" glyph-name="suitcases" d="M853.299 746.669h-128v42.666c0 33.948-13.484 66.505-37.489 90.51s-56.563 37.49-90.511 37.49h-170.667c-33.948 0-66.505-13.486-90.51-37.49s-37.49-56.562-37.49-90.51v-42.666h-128c-33.948 0-66.505-13.486-90.51-37.49s-37.49-56.562-37.49-90.51v-170.667c0.096-17.894 3.943-35.567 11.292-51.881 7.349-16.319 18.037-30.909 31.375-42.841v-246.612c0-33.948 13.486-66.506 37.49-90.511s56.562-37.489 90.51-37.489h597.333c33.948 0 66.506 13.484 90.511 37.489s37.489 56.563 37.489 90.511v246.612c13.339 11.932 24.026 26.522 31.378 42.841 7.346 16.314 11.194 33.988 11.291 51.881v170.667c0 33.948-13.484 66.505-37.489 90.51s-56.563 37.49-90.511 37.49zM383.965 789.335c0 11.316 4.495 22.169 12.497 30.17s18.854 12.497 30.17 12.497h170.667c11.313 0 22.167-4.495 30.17-12.497 7.998-8.002 12.493-18.854 12.493-30.17v-42.666h-255.997v42.666zM127.965 618.669c0 11.316 4.495 22.168 12.497 30.17s18.854 12.497 30.17 12.497h682.667c11.313 0 22.167-4.495 30.17-12.497 7.998-8.002 12.498-18.854 12.498-30.17v-170.667c0-11.316-4.5-22.169-12.498-30.172-8.003-7.998-18.858-12.493-30.17-12.493h-213.337c0 33.946-13.484 66.503-37.489 90.508s-56.563 37.49-90.508 37.49c-33.948 0-66.505-13.486-90.51-37.49s-37.49-56.562-37.49-90.508h-213.333c-11.316 0-22.169 4.495-30.17 12.493-8.001 8.004-12.497 18.857-12.497 30.172v170.667zM554.631 405.337v-85.337c0-11.313-4.495-22.167-12.498-30.17-7.999-7.998-18.852-12.493-30.168-12.493s-22.169 4.495-30.17 12.493c-8.002 8.003-12.497 18.858-12.497 30.17v85.337c0 11.313 4.495 22.167 12.497 30.169s18.854 12.497 30.17 12.497c11.316 0 22.169-4.495 30.168-12.497 8.003-8.002 12.498-18.856 12.498-30.169zM853.299 106.668c0-11.318-4.495-22.167-12.498-30.17s-18.852-12.498-30.17-12.498h-597.333c-11.316 0-22.168 4.495-30.17 12.498s-12.497 18.852-12.497 30.17v213.332h213.333c0-33.943 13.486-66.501 37.49-90.505s56.562-37.495 90.51-37.495c33.946 0 66.503 13.49 90.508 37.495s37.489 56.563 37.489 90.505h213.337v-213.332z" />
<glyph unicode="&#xe91e;" glyph-name="twitter" d="M960.051 757.935c-35.299-15.68-73.282-26.239-113.123-31.007 40.675 24.384 71.907 62.975 86.594 108.959-38.012-22.592-80.223-38.944-125.052-47.807-35.935 38.271-87.168 62.207-143.775 62.207-108.766 0-196.957-88.191-196.957-196.957 0-15.424 1.76-30.464 5.12-44.896-163.71 8.192-308.828 86.623-405.979 205.789-16.96-29.088-26.656-62.911-26.656-99.007 0-68.319 34.719-128.606 87.615-163.934-32.32 1.024-62.655 9.888-89.247 24.64v-2.464c0-95.454 67.935-175.037 157.982-193.181-16.511-4.48-33.919-6.912-51.871-6.912-12.704 0-25.056 1.249-37.088 3.552 25.056-78.239 97.823-135.198 183.997-136.798-67.391-52.8-152.318-84.319-244.605-84.319-15.936 0-31.615 0.928-47.007 2.785 87.167-55.869 190.685-88.513 301.915-88.513 362.267 0 560.373 300.126 560.373 560.378 0 8.544-0.154 17.055-0.571 25.471 38.524 27.84 71.936 62.528 98.333 102.015z" />
<glyph unicode="&#xe91f;" glyph-name="menu" d="M0 819.2h1024v-102.4h-1024v102.4zM0 512h1024v-102.4h-1024v102.4zM0 204.8h1024v-102.4h-1024v102.4z" />
<glyph unicode="&#xe920;" glyph-name="cancel" d="M726 272.667l-154 154 154 154-60 60-154-154-154 154-60-60 154-154-154-154 60-60 154 154 154-154zM512 852.667q176 0 301-125t125-301-125-301-301-125-301 125-125 301 125 301 301 125z" />
<glyph unicode="&#xe921;" glyph-name="check_circle" d="M426 212.667l384 384-60 62-324-324-152 152-60-60zM512 852.667q176 0 301-125t125-301-125-301-301-125-301 125-125 301 125 301 301 125z" />
<glyph unicode="&#xe922;" glyph-name="sms-2" d="M512 191.998h-409.6v460.8h153.6v102.4h-153.6c-56.32 0-102.4-46.080-102.4-102.4v-614.4c0-56.32 46.080-102.4 102.4-102.4h409.6c56.32 0 102.4 46.080 102.4 102.4v256h-102.4v-102.4zM102.4 38.398v51.2h409.6v-51.2h-409.6zM921.605 960h-512c-56.32 0-102.4-46.080-102.4-102.4v-307.2c0-35.84 20.48-71.68 51.2-87.040v-168.96l317.44 153.6h245.76c56.32 0 102.4 46.080 102.4 102.4v307.2c0 56.32-46.080 102.4-102.4 102.4zM921.605 550.4h-271.36l-189.44-92.16v92.16h-51.2v307.2h512v-307.2zM512 755.198h102.4v-102.4h-102.4v102.4zM716.795 755.198h102.4v-102.4h-102.4v102.4z" />
<glyph unicode="&#xe923;" glyph-name="menu-2" d="M896 832h-512c-16.974 0-33.253-6.743-45.255-18.745s-18.745-28.281-18.745-45.255c0-16.974 6.743-33.253 18.745-45.255s28.281-18.745 45.255-18.745h512c16.971 0 33.253 6.743 45.255 18.745s18.745 28.281 18.745 45.255c0 16.974-6.742 33.253-18.745 45.255s-28.284 18.745-45.255 18.745zM128 704c35.346 0 64 28.654 64 64s-28.654 64-64 64c-35.346 0-64-28.654-64-64s28.654-64 64-64zM896 512h-512c-16.974 0-33.253-6.743-45.255-18.745s-18.745-28.281-18.745-45.255c0-16.974 6.743-33.253 18.745-45.255s28.281-18.745 45.255-18.745h512c16.971 0 33.253 6.742 45.255 18.745s18.745 28.282 18.745 45.255c0 16.974-6.742 33.253-18.745 45.255s-28.284 18.745-45.255 18.745zM128 384c35.346 0 64 28.656 64 64 0 35.346-28.654 64-64 64s-64-28.654-64-64c0-35.344 28.654-64 64-64zM896 192h-512c-16.974 0-33.253-6.742-45.255-18.745s-18.745-28.284-18.745-45.255c0-16.971 6.743-33.253 18.745-45.255s28.281-18.745 45.255-18.745h512c16.971 0 33.253 6.742 45.255 18.745s18.745 28.284 18.745 45.255c0 16.971-6.742 33.253-18.745 45.255s-28.284 18.745-45.255 18.745zM128 64c35.346 0 64 28.656 64 64s-28.654 64-64 64c-35.346 0-64-28.656-64-64s28.654-64 64-64z" />
<glyph unicode="&#xe924;" glyph-name="star-o" d="M297.251-4.426c-13.49 0-26.921 4.171-38.261 12.38-20.14 14.6-30.179 39.3-25.94 63.811l42.37 247.75-180.16 175.601c-17.73 17.339-24.12 43.22-16.49 66.81 7.69 23.6 28.090 40.74 52.67 44.389l248.41 36.11 111.2 224.81c22.029 44.45 94.84 44.39 116.869 0l111.261-224.88 248.99-36.11c24.57-3.58 44.911-20.79 52.67-44.39 7.634-23.6 1.299-49.469-16.49-66.81l-180.159-175.6 42.429-247.751c4.17-24.44-5.87-49.15-25.88-63.749-20.14-14.671-46.74-16.56-68.641-4.95l-222.59 116.999-221.81-116.999c-9.66-4.941-20.080-7.421-30.45-7.421zM549.441 258.905c10.43 0 20.79-2.48 30.31-7.5l136.1-71.501-25.881 151.35c-3.65 21.12 3.39 42.691 18.711 57.69l110.030 107.29-152.131 22.1c-21.179 3.061-39.5 16.36-49.079 35.59l-68.050 137.47-67.98-137.47c-9.52-19.23-27.83-32.529-49.080-35.59l-151.55-22.029 110.090-107.35c15.32-14.931 22.36-36.57 18.71-57.69l-25.81-151.16 135.191 71.309c9.5 5.020 19.99 7.491 30.42 7.491z" />
<glyph unicode="&#xe925;" glyph-name="key" d="M305.294 934.235c-82.692 0-154.86-30.44-204.235-83.412s-75.294-126.522-75.294-208.118v-389.412c0-81.551 25.725-155.119 75.059-208.118s121.595-83.412 204.471-83.412h413.294c82.895 0 155.234 30.415 204.588 83.412s75.059 126.561 75.059 208.118v389.412c0 81.556-25.712 155.122-75.059 208.118s-121.594 83.412-204.471 83.412zM305.294 843.882h413.412c61.616 0 106.608-20.497 138.353-54.588s50.824-83.798 50.824-146.588v-389.412c0-62.791-19.075-112.497-50.824-146.588s-76.831-54.588-138.471-54.588h-413.294c-61.614 0-106.621 20.499-138.353 54.588s-50.824 83.792-50.824 146.588v389.412c0 62.751 19.26 112.473 51.059 146.588s76.75 54.588 138.118 54.588zM361.176 581.529c-73.189 0-133.529-60.34-133.529-133.529s60.34-133.529 133.529-133.529c73.189 0 133.529 60.34 133.529 133.529 0 73.136-60.177 133.457-133.294 133.529-0.017 0-0.038 0-0.059 0s-0.041 0-0.062 0h0.003zM361.176 491.176h0.117c24.258-0.024 43.059-18.842 43.059-43.176 0-24.377-18.799-43.176-43.176-43.176s-43.176 18.799-43.176 43.176c0 24.376 18.8 43.176 43.176 43.176zM449.647 493.176c-24.95 0-45.176-20.226-45.176-45.176v0c0-24.95 20.226-45.176 45.176-45.176v0h256.118v-43.176c0-24.95 20.226-45.176 45.176-45.176v0c24.95 0 45.176 20.226 45.176 45.176v0 88.353c-0.003 24.949-20.227 45.174-45.176 45.176v0zM616 493.176c-24.95 0-45.177-20.226-45.177-45.176v-88.353c0-24.95 20.226-45.176 45.176-45.176v0c24.95 0 45.176 20.226 45.176 45.176v0 88.353c0 24.95-20.226 45.176-45.176 45.176v0z" />
<glyph unicode="&#xe926;" glyph-name="download" d="M511.944-21.345c-258.7 0-469.387 210.625-469.333 469.338 0.039 186.436 110.73 355.35 281.583 429.917 5.161 2.43 10.757 3.8 16.456 4.030s11.387-0.686 16.727-2.691c5.34-2.006 10.224-5.061 14.362-8.987s7.448-8.641 9.733-13.868c2.285-5.227 3.498-10.856 3.569-16.56s-1.004-11.366-3.158-16.649c-2.155-5.282-5.346-10.077-9.387-14.104s-8.847-7.203-14.135-9.341c-139.983-61.094-230.385-199.033-230.417-351.747-0.044-212.57 171.418-383.999 384-383.999s384.113 171.446 383.999 383.999c-0.080 152.581-90.527 290.36-230.417 351.412-5.285 2.137-10.092 5.314-14.131 9.341-4.045 4.027-7.236 8.823-9.387 14.104-2.156 5.282-3.231 10.945-3.157 16.649 0.068 5.704 1.28 11.333 3.567 16.56 2.281 5.226 5.592 9.942 9.734 13.868 4.136 3.926 9.023 6.985 14.359 8.991 5.342 2.006 11.031 2.917 16.731 2.687 5.695-0.23 11.292-1.6 16.452-4.031 170.729-74.511 281.486-243.254 281.583-429.582 0.142-258.73-210.631-469.338-469.332-469.338zM511.445 234.655c-11.124 0.176-21.739 4.693-29.583 12.578l-170.75 170.676c-4.084 3.942-7.341 8.661-9.579 13.878s-3.413 10.829-3.455 16.506c-0.042 5.677 1.049 11.306 3.209 16.555s5.346 10.012 9.371 14.016c4.025 4.003 8.809 7.165 14.071 9.296s10.895 3.189 16.572 3.115c5.676-0.074 11.281-1.277 16.485-3.544s9.905-5.55 13.825-9.655l97.583-97.502v494.082c0 56.902 85.416 56.902 85.416 0v-494.497l97.916 97.917c3.829 4.466 8.533 8.094 13.83 10.654 5.291 2.561 11.059 4.001 16.936 4.227s11.736-0.768 17.209-2.913c5.478-2.145 10.45-5.399 14.609-9.557s7.413-9.131 9.557-14.606c2.145-5.475 3.135-11.333 2.907-17.209s-1.667-11.645-4.227-16.939c-2.56-5.294-6.19-9.998-10.655-13.823l-170.665-170.671c-4.004-4.022-8.772-7.208-14.024-9.37s-10.881-3.254-16.559-3.209v-0.006z" />
<glyph unicode="&#xe927;" glyph-name="user-plus" d="M411.895 337.263c-92.674 0-179.603-6.331-248.947-29.579-34.672-11.624-65.56-27.711-89.263-52.316s-38.316-58.843-38.316-95.789c0-36.888 14.422-71.083 38-95.789s54.422-40.965 89.053-52.737c69.262-23.544 156.266-30 249.474-30 92.701 0 179.505 6.22 248.842 29.474 34.668 11.627 65.566 27.714 89.263 52.316s38.421 58.854 38.421 95.789c0 36.878-14.533 71.086-38.105 95.789s-54.425 40.961-89.053 52.737c-69.255 23.552-156.133 30.105-249.368 30.105zM411.895 256.421c89.032 0 170.144-7.689 223.368-25.789 26.612-9.050 45.561-20.508 56.526-32s15.789-22.008 15.789-40c0-17.932-4.801-28.277-15.789-39.684s-30.048-22.733-56.737-31.684c-53.379-17.902-134.535-25.368-223.158-25.368-89.010 0-170.138 7.695-223.368 25.789-26.615 9.047-45.663 20.402-56.632 31.895s-15.684 21.997-15.684 40c0 17.945 4.693 28.38 15.684 39.79s30.045 22.735 56.737 31.684c53.384 17.898 134.662 25.368 223.263 25.368zM411.895 924.632c-140.747 0-255.731-114.912-255.789-255.684-0.502-140.392 113.67-255.497 254.105-256 0.031 0 0.068 0 0.105 0s0.074 0 0.111 0h1.468c140.821 0 255.789 115.073 255.789 255.895s-114.969 255.789-255.789 255.789zM411.895 843.789c97.137 0 174.947-77.81 174.947-174.947s-77.81-175.053-174.947-175.053h-1.474c-96.718 0.404-173.82 78.161-173.474 174.842 0 0.031 0 0.068 0 0.105s0 0.074 0 0.111v-0.006c0 97.138 77.866 174.947 174.947 174.947zM851.684 645.474c-22.324 0-40.421-18.097-40.421-40.421v0-189.053c0-22.324 18.097-40.421 40.421-40.421v0c22.324 0 40.421 18.097 40.421 40.421v0 189.053c0 22.324-18.097 40.421-40.421 40.421v0zM755.263 550.947c-22.324 0-40.421-18.097-40.421-40.421v0c0-22.324 18.097-40.421 40.421-40.421v0h192.947c22.324 0 40.421 18.097 40.421 40.421v0c0 22.324-18.097 40.421-40.421 40.421v0z" />
<glyph unicode="&#xe928;" glyph-name="user" horiz-adv-x="808" d="M403.474 330.632c-93.231 0-180.599-6.311-250.316-29.684-34.858-11.687-65.982-27.813-89.789-52.526s-38.421-59.099-38.421-96.211c0-37.051 14.531-71.395 38.211-96.211s54.658-41.217 89.474-53.053c69.631-23.672 157.055-30.211 250.842-30.211 93.234 0 180.61 6.303 250.316 29.684 34.853 11.691 65.882 27.921 89.684 52.632s38.526 59.004 38.526 96.105c0 37.040-14.537 71.398-38.211 96.211s-54.664 41.109-89.474 52.947c-69.619 23.677-157.051 30.316-250.842 30.316zM403.474 249.789c89.587 0 171.256-7.775 224.842-26 26.793-9.112 45.88-20.611 56.947-32.211s15.895-22.265 15.895-40.421c0-18.097-4.801-28.588-15.895-40.105s-30.284-22.88-57.158-31.895c-53.747-18.029-135.479-25.579-224.632-25.579-89.59 0-171.245 7.779-224.842 26-26.799 9.11-45.877 20.609-56.947 32.211s-15.895 22.252-15.895 40.421c0 18.109 4.799 28.587 15.895 40.105s30.279 22.988 57.158 32c53.758 18.023 135.474 25.474 224.632 25.474zM403.474 919.684c-140.42 0-255.146-114.649-255.263-255.053 0-0.036 0-0.070 0-0.105s0-0.070 0-0.105c-0.357-139.996 113.59-254.683 253.579-255.158 0.031 0 0.068 0 0.105 0s0.074 0 0.111 0h1.468c140.502 0 255.263 114.666 255.263 255.158s-114.771 255.263-255.263 255.263zM403.474 842.632c98.891 0 178.211-79.321 178.211-178.211s-79.33-178.211-178.211-178.211h-1.474c-98.374 0.391-177.071 79.661-176.737 178.105 0 0.016 0 0.034 0 0.053s0 0.037 0 0.055v-0.003c0 98.88 79.321 178.211 178.211 178.211z" />
<glyph unicode="&#xe929;" glyph-name="minuse-circle" d="M512.010 917.338c-92.826 0-183.566-27.526-260.748-79.097s-137.337-124.871-172.86-210.631c-35.522-85.759-44.817-180.126-26.707-271.168 18.11-91.040 62.809-174.67 128.447-240.309 65.637-65.632 149.264-110.333 240.306-128.446 91.041-18.107 185.411-8.812 271.168 26.708 85.763 35.527 159.057 95.678 210.631 172.863 51.573 77.179 79.095 167.918 79.095 260.745-0.145 124.43-49.64 243.722-137.626 331.707s-207.276 137.48-331.706 137.627zM512.010 64.006c-75.948 0-150.191 22.522-213.339 64.717s-112.367 102.165-141.431 172.333c-29.064 70.165-36.668 147.375-21.852 221.863s51.389 142.911 105.093 196.615c53.703 53.703 122.126 90.276 196.615 105.093s151.698 7.212 221.866-21.852c70.168-29.064 130.138-78.282 172.333-141.431s64.717-137.391 64.717-213.339c-0.126-101.802-40.623-199.408-112.61-271.389-71.987-71.987-169.586-112.489-271.392-112.61zM725.335 490.662h-426.669c-11.316 0-22.168-4.495-30.169-12.496s-12.497-18.854-12.497-30.17c0-11.316 4.495-22.168 12.497-30.169s18.854-12.497 30.169-12.497h426.669c11.312 0 22.167 4.495 30.166 12.497 8.005 8.002 12.499 18.854 12.499 30.169s-4.494 22.168-12.499 30.17c-7.999 8.001-18.854 12.496-30.166 12.496z" />
<glyph unicode="&#xe92a;" glyph-name="plus-circle" d="M512.010 917.316c-92.826 0-183.566-27.526-260.748-79.097s-137.337-124.871-172.86-210.63c-35.522-85.759-44.817-180.127-26.707-271.171 18.11-91.040 62.809-174.664 128.447-240.303s149.264-110.339 240.306-128.446c91.041-18.113 185.411-8.818 271.168 26.708 85.763 35.521 159.057 95.678 210.631 172.857s79.095 167.924 79.095 260.747c-0.145 124.43-49.64 243.722-137.626 331.707s-207.276 137.48-331.706 137.627zM512.010 63.982c-75.948 0-150.191 22.522-213.339 64.717s-112.367 102.165-141.431 172.333c-29.064 70.167-36.668 147.377-21.852 221.866s51.389 142.911 105.093 196.614c53.703 53.703 122.126 90.276 196.615 105.093s151.698 7.213 221.866-21.852c70.168-29.064 130.138-78.282 172.333-141.431s64.717-137.391 64.717-213.34c-0.126-101.804-40.623-199.404-112.61-271.391s-169.586-112.483-271.392-112.61zM725.335 490.666h-170.669v170.667c0 11.316-4.495 22.168-12.496 30.169s-18.854 12.497-30.17 12.497c-11.316 0-22.168-4.495-30.17-12.497s-12.496-18.854-12.496-30.169v-170.667h-170.667c-11.316 0-22.168-4.495-30.169-12.496s-12.497-18.854-12.497-30.17c0-11.316 4.495-22.168 12.497-30.17s18.854-12.496 30.169-12.496h170.667v-170.669c0-11.312 4.495-22.167 12.496-30.166 8.002-8.005 18.854-12.499 30.17-12.499s22.168 4.494 30.17 12.499c8.002 7.999 12.496 18.854 12.496 30.166v170.669h170.669c11.312 0 22.167 4.495 30.166 12.496 8.005 8.002 12.499 18.854 12.499 30.17s-4.494 22.168-12.499 30.17c-7.999 8.002-18.854 12.496-30.166 12.496z" />
<glyph unicode="&#xe92b;" glyph-name="search" d="M946.253 89.043l-172.966 172.966c52.422 68.623 81.171 151.859 81.184 239.691 0 105.846-41.222 205.364-116.083 280.209-74.842 74.844-174.347 116.067-280.206 116.067-105.846 0-205.364-41.224-280.209-116.067-154.505-154.518-154.505-405.924 0-560.418 74.844-74.854 174.362-116.077 280.209-116.077 87.832 0.006 171.068 28.762 239.688 81.178l172.966-172.966c10.406-10.413 24.064-15.622 37.709-15.622s27.309 5.21 37.709 15.622c20.832 20.819 20.832 54.598 0 75.418zM253.389 296.909c-112.916 112.916-112.904 296.653 0 409.583 54.7 54.687 127.435 84.818 204.792 84.818 77.37 0 150.091-30.131 204.788-84.818 54.701-54.7 84.832-127.435 84.832-204.792 0-77.37-30.131-150.091-84.832-204.792-54.698-54.701-127.419-84.832-204.788-84.832-77.357 0-150.092 30.131-204.792 84.832z" />
<glyph unicode="&#xe92c;" glyph-name="comment" d="M937.51 920.827h-851.090c-37.004 0-67.841-30.837-67.841-67.841v-624.958c0-37.004 30.837-67.837 67.841-67.837h131.57v-154.187c0-26.721 32.892-41.116 51.394-22.614l174.741 174.743h493.385c37.004 0 67.843 30.839 67.843 67.843v627.011c0 37.004-30.839 67.841-67.843 67.841v0zM248.826 480.891h-51.395c-37.004 0-67.841 30.836-67.841 67.841s30.837 67.841 67.841 67.841h51.395c37.004 0 67.841-30.836 67.841-67.841s-30.836-67.841-67.841-67.841zM538.691 480.891h-51.395c-37.004 0-67.841 30.836-67.841 67.841s30.836 67.841 67.841 67.841h51.395c37.002 0 67.841-30.836 67.841-67.841-2.053-37.004-30.839-67.841-67.841-67.841zM826.497 480.891h-51.394c-37.004 0-67.837 30.836-67.837 67.841s30.833 67.841 67.837 67.841h51.394c37.004 0 67.843-30.836 67.843-67.841s-30.839-67.841-67.843-67.841v0z" />
<glyph unicode="&#xe92d;" glyph-name="print" d="M908.385 888.258c0 39.556-32.188 71.742-71.743 71.742h-649.289c-39.557 0-71.742-32.186-71.742-71.742v-176h792.773v176zM968.812 646.198h-913.547c-21.347 0-38.71-17.362-38.71-38.709v-385.030c0-21.35 17.363-38.713 38.71-38.713h142.968v126.453c0 57.788 46.989 104.775 104.775 104.775h418.065c57.788 0 104.772-46.987 104.772-104.775v-126.453h142.967c21.35 0 38.713 17.362 38.713 38.713v385.030c0 21.347-17.362 38.709-38.713 38.709zM875.395 497.553h-49.55c-18.25 0-33.030 14.782-33.030 33.032s14.78 33.033 33.030 33.033h49.55c18.25 0 33.030-14.782 33.030-33.033s-14.78-33.032-33.030-33.032zM721.072 348.911h-418.065c-21.347 0-38.71-17.362-38.71-38.713v-335.485c0-21.345 17.363-38.707 38.71-38.707h418.065c21.345 0 38.707 17.362 38.707 38.707v335.485c0 21.35-17.362 38.713-38.707 38.713zM611.135 35.1h-198.192c-18.251 0-33.033 14.785-33.033 33.035s14.782 33.030 33.033 33.030h198.192c18.25 0 33.035-14.78 33.035-33.030s-14.785-33.035-33.035-33.035zM611.135 183.745h-198.192c-18.251 0-33.033 14.785-33.033 33.035s14.782 33.030 33.033 33.030h198.192c18.25 0 33.035-14.78 33.035-33.030s-14.785-33.035-33.035-33.035z" />
<glyph unicode="&#xe92e;" glyph-name="reply" horiz-adv-x="1317" d="M684.617 628.667v293.279c0 10.005-5.634 19.116-14.533 23.593s-19.643 3.477-27.597-2.528l-631.954-473.966c-6.634-4.95-10.533-12.744-10.533-21.065 0-8.267 3.898-16.061 10.533-21.065l631.954-473.968c7.951-6.005 18.695-6.897 27.597-2.472 8.899 4.476 14.533 13.583 14.533 23.537v287.702c301.707-13.85 487.029-109.328 582.078-299.441 4.535-9.114 13.7-14.585 23.545-14.585 2.004 0 4.001 0.263 6.056 0.739 11.9 2.787 20.275 13.371 20.275 25.593 0 368.584-247.15 623.261-631.954 654.647z" />
</font>
</defs>
</svg>
